<?xml version="1.0" standalone="no"?>
<!DOCTYPE svg PUBLIC "-//W3C//DTD SVG 1.1//EN" "http://www.w3.org/Graphics/SVG/1.1/DTD/svg11.dtd" >
<svg xmlns="http://www.w3.org/2000/svg">
<metadata>Generated by IcoMoon</metadata>
<defs>
<font id="icomoon" horiz-adv-x="1024">
<font-face units-per-em="1024" ascent="960" descent="-64" />
<missing-glyph horiz-adv-x="1024" />
<glyph unicode="&#x20;" horiz-adv-x="512" d="" />
<glyph unicode="&#xe900;" glyph-name="1" horiz-adv-x="1317" d="M1150.208 960h-983.847c-92.124 0-166.361-88.697-166.361-198.768v-626.466c0-110.065 74.236-198.766 166.361-198.766h983.847c92.131 0 166.363 88.7 166.363 198.766v626.466c0 110.070-74.233 198.768-166.363 198.768zM1124.272 831.762l-465.986-301.595-465.987 301.595h931.973zM1150.208 64.234h-983.847c-32.199 0-59.031 32.066-59.031 70.532v613.642l517.863-350.753c9.838-8.549 21.466-13.893 33.093-13.893s23.254 4.275 33.093 13.893l517.862 350.753v-613.642c0-39.541-26.829-70.532-59.034-70.532z" />
<glyph unicode="&#xe901;" glyph-name="2" d="M511.98 960c-207.136 0-393.907-124.805-473.037-315.94-79.131-191.426-35.492-411.652 111.132-557.987 146.624-146.33 366.56-190.259 557.988-111.132 191.135 79.132 315.938 265.904 315.938 473.039-0.29 282.775-229.245 511.73-512.020 512.020zM511.98 29.053c-169.316 0-322.34 102.116-386.925 258.628-64.876 156.516-29.092 336.596 90.767 456.455s299.94 155.642 456.457 90.767c156.513-64.876 258.628-217.609 258.628-386.925-0.29-231.284-187.648-418.636-418.928-418.926zM558.525 467.189v260.083c0 25.601-20.946 46.547-46.548 46.547s-46.547-20.946-46.547-46.547v-279.284c0-12.219 4.945-24.146 13.673-32.874l139.642-139.641c18.33-17.749 47.417-17.454 65.166 0.58 18.039 18.039 18.33 47.132 0.58 65.166l-125.967 125.969z" />
<glyph unicode="&#xe902;" glyph-name="3" d="M1011.849 6.952l-214.010 214.010c65.001 78.205 104.203 178.611 104.203 288.016-0.199 248.612-202.405 451.022-451.020 451.022-248.612 0-451.022-202.41-451.022-451.022 0-248.615 202.41-451.020 451.022-451.020 109.405 0 209.811 39.202 288.016 104.203l214.010-214.010c8.198-8.203 18.802-12.203 29.4-12.203s21.202 3.999 29.4 12.203c16.202 16.202 16.202 42.604 0 58.8zM83.204 508.978c0 202.81 165.008 367.618 367.618 367.618s367.615-165.008 367.615-367.618c0-202.609-165.006-367.621-367.615-367.621s-367.618 165.012-367.618 367.621z" />
<glyph unicode="&#xe903;" glyph-name="4" horiz-adv-x="970" d="M969.426 115.814l-74.035 552.594c-3.282 24.762-24.511 43.46-49.777 43.46h-171.057v56.093c0 104.353-83.381 191.020-187.736 192.030-105.364 1.011-191.272-84.392-191.272-189.504v-58.872h-171.311c-25.015 0-46.239-18.698-49.776-43.46l-73.78-551.581v-1.013c-3.537-32.089 6.822-64.178 28.299-88.183s52.303-37.645 84.645-37.645h742.854c32.342 0 63.17 13.641 84.647 37.645s31.836 56.347 28.3 88.436zM371.35 770.487c0 62.663 51.040 113.702 113.702 113.702 62.663 0 113.702-51.039 113.702-113.702v-58.872h-227.404v58.872zM884.779 78.169c-7.33-8.090-17.182-12.633-28.3-12.633h-742.854c-10.865 0-20.972 4.543-28.299 12.633-7.075 8.084-10.612 18.189-9.601 29.055l69.232 515.704c1.011 7.58 7.327 13.139 14.907 13.139h135.685v-52.556c0-20.972 16.929-37.9 37.9-37.9s37.901 16.929 37.901 37.9v52.556h227.404v-52.556c0-20.972 16.928-37.9 37.899-37.9 20.976 0 37.904 16.929 37.904 37.9v52.556h135.432c7.578 0 13.894-5.559 14.907-13.139l69.233-515.704c1.008-10.865-2.274-20.97-9.351-29.055z" />
<glyph unicode="&#xe904;" glyph-name="5" horiz-adv-x="1707" d="M614.392 863.457l-96.544 96.543-482.708-482.729 482.718-482.718 96.543 96.543-322.77 322.772h1415.036v136.533h-1405.331l313.057 313.057z" />
<glyph unicode="&#xe905;" glyph-name="6" horiz-adv-x="1707" d="M1092.273 863.457l96.543 96.543 482.714-482.729-482.72-482.718-96.543 96.543 322.772 322.772h-1415.038v136.533h1405.331l-313.057 313.057z" />
<glyph unicode="&#xe906;" glyph-name="7" horiz-adv-x="1084" d="M542.118 960l121.711-374.594h393.873l-318.651-231.511 121.717-374.597-318.651 231.514-318.649-231.514 121.713 374.597-318.649 231.511h393.871l121.713 374.594z" />
<glyph unicode="&#xe907;" glyph-name="8" horiz-adv-x="1074" d="M1074.258 570.503h-408.344l-125.644 389.497-125.644-389.497h-414.626l332.957-238.724-125.644-389.497 332.957 238.724 332.957-238.724-125.644 389.497 326.675 238.724zM540.27 300.368l-150.773-106.798 56.54 175.902-144.491 106.798h182.184l56.54 169.62 56.54-175.902h182.184l-150.773-100.515 56.54-175.902-144.491 106.798z" />
<glyph unicode="&#xe908;" glyph-name="9" horiz-adv-x="1280" d="M352 960h-192c-88.4 0-160-72-160-160v-192c0-87.998 71.6-160 160-160h192c36.001 0 69.2 11.999 96 32v-192c0-158.8-129.2-288-288-288h-128c-17.6 0-32-14.398-32-32s14.4-32 32-32h128c194 0 352 158 352 352v512c0 88-71.6 160-160 160zM352 512h-192c-52.8 0-96 43.198-96 96v192c0 52.8 43.2 96 96 96h192c52.802 0 96-43.2 96-96v-192c0-52.802-43.198-96-96-96zM1120 960h-192c-88.4 0-160-72-160-160v-192c0-87.998 71.6-160 160-160h192c36.001 0 69.2 11.999 96 32v-192c0-158.8-129.2-288-288-288h-128c-17.602 0-32-14.398-32-32s14.398-32 32-32h128c194 0 352 158 352 352v512c0 88-71.6 160-160 160zM1120 512h-192c-52.798 0-96 43.198-96 96v192c0 52.8 43.202 96 96 96h192c52.802 0 96-43.2 96-96v-192c0-52.802-43.198-96-96-96z" />
<glyph unicode="&#xe909;" glyph-name="10" horiz-adv-x="887" d="M433.349 331.994c-179.209 0-325.014 140.865-325.014 314.003s145.805 314.003 325.014 314.003c179.209 0 325.012-140.866 325.012-314.003s-145.803-314.003-325.012-314.003zM433.349 829.166c-104.727 0-189.591-81.99-189.591-183.169s84.864-183.168 189.591-183.168c104.727 0 189.592 81.99 189.592 183.168s-84.865 183.169-189.592 183.169zM862.638-49.172c28.89 23.115 32.952 64.109 9.475 92.023-95.696 112.954-237.437 177.5-388.207 177.5h-80.351c-150.77 0-292.512-64.983-388.21-177.5-23.925-27.914-19.41-69.345 9.48-92.023 28.89-23.115 71.774-18.753 95.247 9.161 69.968 82.425 173.34 129.959 283.483 129.959h80.351c110.143 0 213.513-47.097 283.486-129.959 13.537-15.701 32.952-23.989 52.361-23.989 14.896 0 30.242 5.236 42.885 14.828z" />
<glyph unicode="&#xe90a;" glyph-name="11" horiz-adv-x="1092" d="M73.574 232.12l-71.339-229.929c-11.947-39.069 25.941-75.237 67.243-64.259l244.053 65.229c206.165-97.847 456.707-63.939 621.23 91.709 209.92 198.603 209.92 522.499 0 721.098s-568.665 183.1-755.374 6.459c-186.71-176.641-206.507-395.908-105.813-590.307zM857.279 168.175c-136.875-129.488-347.822-156.617-516.099-66.198-12.629 6.786-27.648 8.718-41.643 4.847l-164.864-43.923 48.128 155.006c4.096 13.244 2.389 27.771-4.437 39.724-93.525 158.877-75.093 346.497 76.8 490.523 152.235 144.025 434.179 154.036 602.115-5.167 168.277-159.203 168.277-415.607 0-574.812z" />
<glyph unicode="&#xe90b;" glyph-name="12" horiz-adv-x="1536" d="M724.042 332.861l-543.023 543.024-181.019-181.019 724.077-724.077 724.102 724.188-181.016 181.023-543.121-543.139z" />
<glyph unicode="&#xe90c;" glyph-name="13" d="M790.95 844.951h-20.239v63.428c0 31.322-21.263 51.622-51.622 51.622-30.419 0-51.682-20.299-51.682-51.622v-63.428h-336.233v63.428c0.12 21.504 0.12 51.563-60.115 51.622-30.118 0-43.189-20.299-43.189-51.622v-63.428h-46.622c-98.184 0-181.248-70.957-181.248-183.718v-532.179c0-98.063 83.064-180.947 181.248-180.947h609.702c98.244 0 181.308 82.884 181.308 180.947v532.179c0 112.76-83.064 183.718-181.308 183.718zM181.248 753.754h609.702c41.562 0 78.005-36.382 78.005-92.521v-57.163h-765.651v57.163c0 56.139 36.442 92.521 77.944 92.521zM790.95 52.194h-609.702c-41.502 0-77.944 34.394-77.944 76.86v372.013h764.627v-372.013c0-42.466-35.418-76.86-76.981-76.86zM286.118 417.823h90.353c24.95 0 45.176-20.226 45.176-45.176s-20.226-45.176-45.176-45.176h-90.353c-24.95 0-45.176 20.226-45.176 45.176s20.226 45.176 45.176 45.176zM286.118 237.116h90.353c24.95 0 45.176-20.226 45.176-45.176s-20.226-45.176-45.176-45.176h-90.353c-24.95 0-45.176 20.226-45.176 45.176s20.226 45.176 45.176 45.176zM587.294 417.823h90.353c24.95 0 45.176-20.226 45.176-45.176s-20.226-45.176-45.176-45.176h-90.353c-24.95 0-45.176 20.226-45.176 45.176s20.226 45.176 45.176 45.176zM587.294 237.116h90.353c24.95 0 45.176-20.226 45.176-45.176s-20.226-45.176-45.176-45.176h-90.353c-24.95 0-45.176 20.226-45.176 45.176s20.226 45.176 45.176 45.176z" />
<glyph unicode="&#xe90d;" glyph-name="14" horiz-adv-x="904" d="M878.014 501.853l-803.138 451.764c-15.477 8.784-34.719 8.366-49.778-0.418-15.477-9.203-25.098-25.516-25.098-43.503v-903.531c0-17.986 9.621-34.301 25.098-43.502 7.948-4.602 16.732-6.692 25.098-6.692s17.15 2.090 24.68 6.274l803.138 451.765c15.896 8.785 25.516 25.516 25.516 43.921s-10.038 34.72-25.516 43.924z" />
<glyph unicode="&#xe90e;" glyph-name="15" horiz-adv-x="975" d="M741.181 335.848c-68.267 0-131.657-34.133-165.79-87.771l-209.676 117.029c14.629 24.381 24.381 53.638 24.381 87.771 0 19.505-4.876 39.010-9.752 53.638l219.429 121.905c34.133-34.133 82.895-58.514 141.41-58.514 107.276 0 195.048 87.771 195.048 195.048s-87.771 195.048-195.048 195.048c-107.276 0-195.048-87.771-195.048-195.048 0-19.505 4.876-39.010 9.752-53.638l-219.429-126.781c-34.133 39.010-82.895 63.39-141.41 63.39-107.276 0-195.048-87.771-195.048-195.048s87.771-195.048 195.048-195.048c43.886 0 82.895 14.629 117.029 39.010l234.057-136.533c0-4.876 0-14.629 0-19.505 0-107.276 87.771-195.048 195.048-195.048s195.048 87.771 195.048 195.048c0 107.276-87.771 195.048-195.048 195.048zM741.181 881.981c63.39 0 117.029-53.638 117.029-117.029s-53.638-117.029-117.029-117.029c-63.39 0-117.029 53.638-117.029 117.029s53.638 117.029 117.029 117.029zM195.048 335.848c-63.39 0-117.029 53.638-117.029 117.029s53.638 117.029 117.029 117.029c63.39 0 117.029-53.638 117.029-117.029s-53.638-117.029-117.029-117.029zM741.181 23.771c-63.39 0-117.029 53.638-117.029 117.029s53.638 117.029 117.029 117.029c63.39 0 117.029-53.638 117.029-117.029s-53.638-117.029-117.029-117.029z" />
<glyph unicode="&#xe90f;" glyph-name="16" d="M532.48 960h-40.96v-491.52h-491.52v-40.96h491.52v-491.52h40.96v491.52h491.52v40.96h-491.52v491.52z" />
<glyph unicode="&#xe910;" glyph-name="17" horiz-adv-x="1055" d="M1024.258-2.982h-53.577v233.761c16.486 13.29 25.827 32.272 25.827 52.612v78.643c0 42.847-38.738 77.83-86.27 77.83h-40.386v191.187c0 32-26.376 58.034-58.796 58.034h-3.572v20.882c36.541 12.746 62.917 46.915 62.917 87.322 0 13.559-3.848 36.339-35.17 93.559-15.934 29.559-31.868 54.237-32.417 55.322-5.772 8.407-15.661 13.831-26.376 13.831-10.718 0-20.607-5.424-26.103-14.102-0.549-1.085-16.483-25.763-32.42-55.322-31.046-57.22-35.167-80-35.167-93.559 0-40.407 26.376-74.576 62.917-87.322v-20.882h-3.848c-32.42 0-58.796-26.034-58.796-58.033v-191.187h-62.092v191.187c0 31.999-26.376 58.033-58.796 58.033h-3.572v20.882c36.541 12.746 62.917 46.915 62.917 87.322 0 13.559-4.121 36.339-35.167 93.559-15.937 29.559-31.871 54.237-32.42 55.322-5.769 8.678-15.661 14.102-26.376 14.102s-20.607-5.424-26.103-14.102c-0.549-1.085-16.483-25.763-32.417-55.322-31.049-57.22-35.17-80-35.17-93.559 0-40.407 26.376-74.576 62.917-87.322v-20.882h-3.572c-32.42 0-58.796-26.034-58.796-58.033v-191.187h-62.368v191.187c0 31.999-26.376 58.033-58.796 58.033h-3.57v20.882c36.54 12.746 62.916 46.915 62.916 87.322 0 13.559-4.121 36.339-35.167 93.559-15.934 29.559-31.87 54.237-32.42 55.322-6.044 8.678-15.935 14.102-26.376 14.102-10.715 0-20.606-5.424-26.101-14.102-0.549-1.085-16.485-25.763-32.42-55.322-31.321-57.22-35.168-80-35.168-93.559 0-40.407 26.376-74.576 62.917-87.322v-20.882h-3.572c-32.42 0-58.796-26.034-58.796-58.033v-191.187h-40.663c-47.531 0-86.27-34.984-86.27-77.83v-78.646c0-20.337 9.341-39.049 25.826-52.609v-233.764h-53.301c-17.034 0-31.046-13.557-31.046-30.642 0-16.815 13.737-30.646 31.046-30.646h993.211c17.036 0 31.046 13.56 31.046 30.646-0.273 17.085-14.010 30.915-31.046 30.915zM744.566 797.017c0.273 9.762 13.461 39.051 31.871 72.407 18.407-33.085 31.595-62.644 31.868-72.407 0-17.356-14.286-31.458-31.868-31.458-17.585 0-31.871 14.101-31.871 31.458zM745.115 627.796h62.917v-187.932h-62.917v187.932zM495.644 797.017c0.276 9.762 13.464 39.051 31.871 72.407 18.407-33.085 31.595-62.644 31.871-72.407 0-17.356-14.286-31.458-31.871-31.458s-31.871 14.101-31.871 31.458zM495.92 627.796h62.917v-187.932h-62.917v187.932zM246.723 797.017c0.275 9.762 13.462 39.051 31.871 72.407 18.408-33.085 31.596-62.644 31.871-72.407 0-17.356-14.287-31.458-31.871-31.458s-31.871 14.101-31.871 31.458zM246.998 627.796h62.917v-187.932h-62.917v187.932zM908.865-2.982h-762.7v216.135c4.946 0.543 9.616 1.626 14.287 2.982l78.028 22.779c45.058 13.287 94.788 13.287 139.847 0l61.542-17.898c28.3-8.136 57.971-12.474 87.369-12.474 29.674 0 59.345 4.068 87.372 12.474l61.542 17.898c45.059 13.287 94.788 13.287 139.847 0l78.026-22.779c4.673-1.356 9.616-2.439 14.289-2.982v-216.135h0.549zM934.692 283.117c0-2.439-2.2-4.608-3.848-5.964-3.848-2.985-10.991-5.154-18.683-2.712l-78.029 22.779c-56.323 16.542-118.415 16.542-175.014 0l-61.542-17.898c-45.059-13.287-94.788-13.287-139.847 0l-61.542 17.898c-28.3 8.136-57.698 12.474-87.37 12.474s-59.345-4.068-87.37-12.474l-78.028-22.779c-7.968-2.169-14.836 0-18.683 2.712-1.649 1.356-3.847 3.252-3.847 5.964v78.646c0 7.863 9.891 16.812 24.452 16.812h765.172c14.286 0 24.452-8.679 24.452-16.812v-78.646h-0.273z" />
<glyph unicode="&#xe911;" glyph-name="18" horiz-adv-x="1583" d="M1515.033 547.877l-346.86 344.718c-43.976 43.398-101.891 67.405-163.831 67.405-61.629 0-119.851-24.007-163.517-67.405-14.556-14.466-22.609-33.548-22.919-53.555-1.548 0-3.097 0-4.956 0-38.093 0-73.706-14.774-100.65-41.243-23.847-23.699-38.093-54.786-40.879-87.719h-417.161c-127.594 0-231.343-103.107-231.343-229.916 0-20.93 8.362-40.010 22.298-53.862-27.873-25.854-45.215-62.48-45.215-103.415 0-42.167 18.582-80.024 48.003-105.878-12.078-13.542-19.511-31.393-19.511-50.784v-3.078c0-125.269 102.509-227.452 228.865-227.452h118.612c17.036 0 30.971 13.849 30.971 30.779 0 16.927-13.936 30.779-30.971 30.779h-118.612c-91.98 0-166.926 74.482-166.926 165.894v3.078c0 8.617 6.813 15.388 15.485 15.388h787.865c8.673 0 15.484-6.771 15.484-15.388v-3.078c0-91.412-74.944-165.894-166.924-165.894h-118.613c-17.033 0-30.971-13.852-30.971-30.779 0-16.93 13.939-30.779 30.971-30.779h118.613c78.044 0 146.795 38.782 187.985 98.183l31.899-31.704c44.597-44.321 103.129-66.479 161.662-66.479s117.065 22.159 161.662 66.479l2.166 2.157c13.629 13.542 21.371 30.779 22.609 49.552 2.787-0.307 5.883-0.307 8.673-0.307 38.090 0 73.706 14.774 100.65 41.242 26.944 26.779 41.5 62.172 41.5 100.029 0 1.539 0 3.389 0 4.928 19.509 0.307 39.021 7.692 53.887 22.466 90.121 90.18 90.121 236.072 0 325.638zM100.961 464.468c-8.981 0-16.104 7.078-16.104 16.002 0 92.951 75.875 168.358 169.403 168.358h490.557c93.528 0 169.404-75.407 169.404-168.358 0-8.924-7.121-16.002-16.105-16.002h-797.155zM142.15 243.169c-44.286 0-80.521 35.703-80.521 80.024 0 44.013 35.925 80.024 80.521 80.024h715.087c44.286 0 80.213-35.703 80.213-80.024 0-44.013-35.927-80.024-80.213-80.024h-715.087zM1244.048 48.035l-2.169-2.157c-65.036-64.633-170.952-64.633-235.989 0l-46.452 46.17c7.432 22.466 11.456 46.474 11.456 71.097v3.078c0 19.391-7.432 37.243-19.509 50.784 27.254 24.008 44.904 57.862 47.694 96.029l244.969-243.458c4.025-4.003 4.645-8.617 4.645-10.774-0.31-2.154-0.928-6.771-4.645-10.771zM1375.67 138.83c-15.177-15.081-35.306-23.391-56.984-23.391-21.371 0-41.5 8.31-56.674 23.391l-299.477 297.627c8.67 12.62 13.625 27.701 13.625 44.013 0 126.808-103.747 229.917-231.343 229.917h-10.839c2.479 16.62 10.221 32.010 22.609 44.013 15.174 15.081 35.306 23.392 56.984 23.392 21.367 0 41.5-8.31 56.984-23.392l505.732-502.614c15.177-15.081 23.536-35.086 23.536-56.323-0.618-21.544-8.98-41.553-24.154-56.633zM1471.364 266.252c-6.194-6.156-16.412-6.156-22.606 0l-564.267 560.477c-3.097 3.078-4.645 7.079-4.645 11.388s1.548 8.31 4.645 11.388c33.137 32.933 76.496 49.246 119.851 49.246 43.359 0 86.717-16.313 119.855-49.246l346.857-344.72c66.278-66.172 66.278-172.975 0.31-238.533zM499.849-2.439c-8.052 0-16.105-3.385-21.988-8.927-5.883-5.846-8.98-13.542-8.98-21.852 0-8.003 3.404-16.005 8.98-21.852 5.883-5.849 13.625-8.927 21.988-8.927 8.052 0 16.105 3.385 21.988 8.927 5.883 5.846 8.98 13.542 8.98 21.852 0 8.003-3.404 16.005-8.98 21.852-5.883 5.542-13.936 8.927-21.988 8.927z" />
<glyph unicode="&#xe912;" glyph-name="19" d="M945.599 881.386c-0.199 0.2-0.6 0.6-0.799 0.8-132.201 130.825-373.999 91.418-546.202-80.816-25.799-25.805-48.998-53.411-69.2-82.616-102.799 15.203-193.399-10.402-255.599-72.613-0.2-0.202-0.4-0.401-0.8-0.802 0 0 0 0-0.2-0.199-124.6-126.023-85-379.876 85.8-550.707 172.799-172.834 427.001-209.041 551.4-84.617 0.199 0.199 0.199 0.398 0.401 0.398l0.199 0.202c61.599 62.211 87 152.428 71.799 254.848 29.201 20.406 56.801 43.611 82.6 69.214 173.4 173.434 212.201 415.482 80.6 546.908zM441 758.962c133.399 133.426 309.001 175.634 420.799 111.622l-1.399-0.4c-66.6-22.605-125.599-61.812-170.399-113.222-42.8-48.81-72.801-108.821-87.401-174.033-63.201 57.21-135.398 99.018-209.599 121.423 14.601 19.004 30.601 37.407 48 54.611zM200.999 137.040c-125.8 125.827-175.6 308.861-116 423.885 46-135.228 161.8-236.646 301.999-264.252 120.801-24.004 219.6-111.423 258-228.446l9.202-28.006c-106.001-85.015-312.001-44.407-453.2 96.819zM699.398 94.433c-46.999 133.825-161.399 233.446-300.8 261.052-119.199 23.603-217.599 109.821-256.799 225.044l-12.2 35.607c110.2 90.617 309.799 46.208 453.199-97.018 69.402-69.416 123.401-159.434 139.401-255.852 10.8-64.612 2.6-122.823-22.801-168.832zM822.798 377.088c-17.2-17.203-35.598-33.206-54.599-48.009-21.601 71.612-61.4 141.426-115.8 203.238 2.6 9.603 5.001 19.203 6.801 28.806 23.999 120.624 104.198 212.642 220.598 252.049l35.601 12.202c90.399-108.821 51.8-303.659-92.601-448.287z" />
<glyph unicode="&#xe913;" glyph-name="20" horiz-adv-x="1308" d="M1067.455 434.705l-59.543 274.569c16.1 2.347 30.154 10.691 40.121 22.685 11.756-7.562 25.557-11.734 40.633-11.734h51.112c14.057 0 25.557 11.734 25.557 26.075v104.3c0 14.341-11.5 26.075-25.557 26.075h-51.112c-15.332 0-29.642-4.694-41.654-12.516-11.756 13.559-28.877 21.903-47.79 21.903h-150.778c-27.088 0-50.344-17.47-59.543-41.72h-60.567c-36.545 0-66.446-30.508-66.446-67.795s29.901-67.795 66.446-67.795h131.61v-52.673c0-14.339 11.5-26.075 25.557-26.075 14.054 0 25.554 11.736 25.554 26.075v52.673h44.723l64.142-295.691-121.387-220.595c-13.289-23.987-38.335-38.852-65.422-38.852h-303.090c-12.777 108.473-103.501 192.956-213.134 192.956-48.555 0-94.299-16.165-132.633-46.674 0 0 0 0-0.255 0-45.489-36.506-73.855-88.656-80.5-146.281h-52.389c3.322 187.48 153.844 338.975 338.356 338.975h181.188c14.31 0 26.066-11.995 26.066-26.596v-234.414c0-14.342 11.5-26.075 25.557-26.075h135.953c55.458 0 106.567 30.768 133.402 80.31 12.521 22.946 18.91 48.759 18.91 75.096v86.568c0 14.342-11.5 26.075-25.554 26.075-14.057 0-25.554-11.733-25.554-26.075v-86.568c0-17.471-4.346-34.679-12.524-49.803-17.889-32.853-51.877-53.453-88.678-53.453h-110.399v208.077c0 13.298-3.322 25.816-9.199 37.026 22.997 13.559 38.332 38.852 38.332 67.797 0 43.022-34.5 78.225-76.666 78.225h-93.278c-8.946 0-17.633-1.564-25.554-4.434v228.679c0 43.024-34.5 78.225-76.669 78.225h-164.576c-119.6 0-219.011-89.437-237.155-206.253-0.767-2.608-1.278-5.215-1.278-7.823 0-0.261 0-0.261 0-0.522-1.278-9.908-1.789-20.078-1.789-30.508v-135.589c0-39.114 28.367-71.708 65.167-77.443l56.478-57.626c-74.878-72.491-121.644-174.965-121.644-288.39v-19.817c0-14.342 11.5-26.075 25.556-26.075h143.622c-0.256-1.564-0.511-3.391-0.511-5.217 0-37.808 13.8-72.488 36.289-99.083h-179.4c-14.056 0-25.556-11.736-25.556-26.075 0-14.342 11.5-26.075 25.556-26.075h288.266c1.024 0 2.045 0 3.066 0 81.778 0 148.224 67.794 148.224 151.233 0 1.826-0.256 3.652-0.512 5.217h368.512c40.121 0 77.943 19.556 101.456 52.15h32.455c-7.157-17.994-11.244-37.55-11.244-57.367 0-37.808 13.798-72.488 36.287-99.083h-331.455c-14.054 0-25.554-11.736-25.554-26.075 0-14.342 11.5-26.075 25.554-26.075h440.323c1.021 0 2.045 0 3.066 0 81.778 0 148.221 67.794 148.221 151.233 0 19.817-3.831 39.373-11.244 57.367h41.913c14.054 0 25.554 11.733 25.554 26.075 0 137.674-107.332 250.32-240.99 255.275zM507.278 596.631h93.278c14.054 0 25.554-11.736 25.554-26.075 0-14.342-11.5-26.075-25.554-26.075h-93.278c-14.057 0-25.557 11.733-25.557 26.075 0 14.339 11.5 26.075 25.557 26.075zM51.111 706.145c0 1.565 0 3.129 0 4.694h279.578c14.054 0 25.554 11.734 25.554 26.075s-11.5 26.075-25.554 26.075h-271.145c23.767 78.746 95.833 136.112 180.678 136.112h164.832c14.057 0 25.557-11.734 25.557-26.075v-302.469c0-14.342-11.5-26.075-25.557-26.075h-328.388c-14.056 0-25.555 11.733-25.555 26.075v135.589zM138.256 492.331h58.522c-12.267-7.040-24.022-14.865-35.522-23.47l-23 23.47zM414 95.989c0-54.235-42.934-98.563-96.088-99.083-0.256 0-0.768 0-1.024 0h-3.066c-52.133 1.564-94.044 45.369-94.044 99.083 0 1.826-0.255 3.652-0.511 5.217h195.246c-0.256-1.564-0.512-3.391-0.512-5.217zM155.122 153.355c6.389 41.458 27.6 78.746 60.566 105.341 0 0 0.256 0 0.256 0.262 29.133 23.208 63.889 35.462 100.944 35.462 81.522 0 149.245-61.275 161.766-140.806l-323.532-0.259zM1088.666 824.525h25.557v-52.15h-25.557c-14.054 0-25.554 11.734-25.554 26.075s11.5 26.075 25.554 26.075zM713 776.547c0 8.605 6.901 15.645 15.334 15.645h56.22v-18.253c0-4.433 0.512-8.865 1.28-13.038h-57.5c-8.434 0-15.334 7.040-15.334 15.645zM885.501 760.902h-37.057c-6.901 0-12.777 5.737-12.777 13.038v46.935c0 7.040 5.623 13.038 12.777 13.038h150.778c6.901 0 12.777-5.736 12.777-13.038v-46.935c0-7.040-5.621-13.038-12.777-13.038h-113.721zM1201.112 95.989c0-54.235-42.934-98.563-96.091-99.083-0.253 0-0.765 0-1.021 0h-3.066c-52.133 1.564-94.046 45.369-94.046 99.083 0 20.599 6.389 40.678 17.889 57.367h158.447c11.5-16.688 17.889-36.506 17.889-57.367zM964.466 205.505l97.368 177.050c99.41-1.826 181.444-78.487 193.966-177.050h-291.334z" />
<glyph unicode="&#xe914;" glyph-name="21" horiz-adv-x="1050" d="M932.211 456.256c14.057 1.354 24.53 13.804 22.876 27.61-22.049 213.299-189.908 377.876-400.765 404.132l5.512 21.384c3.308 12.452 0.276 25.715-7.442 35.73-7.442 9.474-18.468 14.888-30.595 14.888h-51.82c-12.403 0-23.703-5.684-31.421-15.7-7.992-10.557-10.196-24.091-6.339-36.542l6.065-19.489c-212.237-25.715-380.922-191.644-401.87-406.297-1.378-13.806 8.82-26.258 23.153-27.61 0.827 0 1.654 0 2.481 0 12.955 0 24.255 9.743 25.634 22.738 20.397 207.885 195.974 364.611 408.484 364.611 211.407 0 386.708-155.915 408.207-362.717 1.103-14.075 13.783-24.092 27.84-22.738zM485.414 909.653h21.499l-4.685-17.865c-2.207 0-4.411 0.271-6.615 0.271-1.654 0-3.31-0.271-4.964-0.271l-5.235 17.865zM998.367 427.021h-998.333c-14.057 0-25.634-11.369-25.634-25.172 0-13.806 11.576-25.175 25.634-25.175h17.916c11.301-41.684 49.889-72.543 95.919-72.543h97.849c31.973-38.167 127.065-151.583 127.065-151.583 0.553-0.812 1.38-1.354 2.207-2.166l151.045-141.297 15.158-12.995-20.672-14.075c-11.576-7.849-14.607-23.821-6.339-35.19 4.961-7.037 12.954-10.826 21.222-10.826 4.961 0 10.199 1.354 14.61 4.6l198.454 136.425 70.835-65.234c4.961-4.6 11.302-6.766 17.641-6.766 6.892 0 13.783 2.706 18.744 7.849 9.646 10.286 9.096 26.255-1.103 35.73l-88.202 81.477c-7.992 7.309-19.569 8.392-28.941 3.789-3.858 11.909-4.134 24.904-0.827 37.356 5.238 20.029 15.711 38.707 29.491 53.865l58.711 64.154c3.858 4.060 6.065 9.472 6.339 15.158h81.311c46.031 0 84.344 30.858 95.921 72.543h24.53c14.333 0 25.633 11.369 25.633 25.175-0.55 13.532-12.127 24.901-26.184 24.901zM693.519 258.386c-19.295-21.384-33.628-47.099-41.070-74.708-7.442-27.881-4.408-57.116 8.545-82.56l-110.252-75.52-23.98 20.572-148.841 139.671c-7.992 9.203-61.466 73.357-99.226 118.29h38.31c0 0 86.825-72.814 87.652-73.354 28.941-20.032 95.644-37.896 127.616-37.896 45.478 0 89.306 18.947 120.451 51.699 10.473 11.098 20.122 20.572 27.564 28.152 12.68 12.721 26.46 21.924 41.068 27.338 5.514 2.166 10.199 3.249 13.783 3.789l-41.62-45.473zM614.689 278.687c-21.499-22.738-51.82-35.73-82.964-35.73-24.532 0-78.28 15.698-97.298 28.15l-38.863 32.753h243.656c-6.889-7.037-15.158-15.429-24.53-25.172zM878.193 354.478h-138.368c-0.274 0-0.827 0-1.101 0h-624.855c-17.089 0-32.249 8.932-40.793 22.195h845.908c-8.819-13.532-23.703-22.195-40.791-22.195zM800.74 544.499c13.507 4.060 21.222 18.406 16.814 31.67-47.962 151.043-183.57 194.623-189.358 196.518-13.507 4.060-27.84-3.248-32.251-16.512-4.408-13.263 3.034-27.339 16.538-31.67 4.687-1.624 116.042-38.166 155.732-163.222 3.308-10.829 13.507-17.866 24.53-17.866 2.757 0 5.514 0.271 7.995 1.083z" />
<glyph unicode="&#xe915;" glyph-name="22" d="M849.333 871.733c-7.731 4.533-16.8 5.333-25.067 2.4-85.6-29.866-170.933-59.733-239.2-83.467-21.597 23.733-50.664 40.267-83.2 46.4-8.532 49.6-39.731 92.267-85.865 115.2l-8.532 4.267c-14.935 7.467-32.801 1.333-40.267-13.333-7.466-14.933-1.334-32.8 13.333-40.267l8.532-4.266c25.868-12.8 44.267-35.733 51.468-62.667-63.467-14.4-111.468-69.334-116.266-135.734-97.601-33.867-201.334-69.868-304.268-105.867-12-4.265-20-15.733-20-28.265v-320c0-12.535 7.733-24.001 20-28.268l804.001-279.998c3.198-1.069 6.665-1.602 9.867-1.602 3.467 0 7.198 0.533 10.4 1.867 0.801 0.268 1.867 0.533 2.933 0.801 16.532 3.732 60.533 14.134 100.533 46.667 50.399 41.333 75.999 102.132 75.999 180.531v400.002c0.268 8.267-1.599 204-174.399 305.6zM474.133 780c49.601 0 89.868-40.267 89.868-90.133 0-49.601-40.267-90.134-89.868-90.134s-90.133 40.532-90.133 90.401c0 49.6 40.267 89.867 90.133 89.867zM332.8 639.732c20.799-58.133 76.267-99.732 141.333-99.732 82.667 0 149.868 67.198 149.868 150.133 0 16.8-2.933 33.066-8.002 48.267 62.669 21.867 138.135 48 214.402 74.667 132-86.667 133.599-245.334 133.599-246.933 0-139.201-100.268-222.401-134.132-246.667l-165.867 57.865c-9.068 3.202-19.468 1.867-27.199-3.732-8.002-5.602-12.535-14.667-12.535-24.534v-122.934c0-16.532-13.333-30.133-30.133-30.133-16.535 0-30.133 13.333-30.133 30.133v165.066c0 12.803-8.002 24.269-20.269 28.268l-422.665 146.667c71.733 25.067 143.2 49.866 211.733 73.598zM504.001 273.068l-444.001 154.398v96.533l444.001-154.398v-96.533zM60 363.734l445.6-154.666c7.999-41.602 44.532-73.068 88.266-73.068 22.402 0 42.668 8.267 58.666 21.6l151.468-53.067v-96.533l-744 259.202v96.533zM804 168.267l-121.332 42.4c0.798 5.066 1.331 10.132 1.331 15.2v80.8l120.001-41.867v-96.533zM964 166.132c0-82.134-32.798-134.665-100-160v263.734c22.133 15.465 64.268 49.601 100 102.135v-205.869zM854.133 696c0-16.533-13.333-30.133-30.133-30.133-16.535 0-30.133 13.333-30.133 30.133s13.333 30.133 30.133 30.133c16.535 0 30.133-13.6 30.133-30.133zM894.136 555.999c0-16.532-13.336-30.133-30.136-30.133-16.532 0-30.133 13.333-30.133 30.133s13.333 30.136 30.133 30.136c16.535 0 30.136-13.601 30.136-30.136zM794.133 436.001c0-16.535-13.333-30.136-30.133-30.136-16.532 0-30.133 13.336-30.133 30.136s13.333 29.865 30.133 29.865c16.535 0.268 30.133-13.333 30.133-29.865zM734.133 576c0-16.535-13.333-30.133-30.133-30.133-16.532 0-30.133 13.333-30.133 30.133s13.333 30.133 30.133 30.133c16.535 0 30.133-13.598 30.133-30.133z" />
<glyph unicode="&#xe916;" glyph-name="23" horiz-adv-x="597" d="M388.343 116.534h-179.093v-60.001h179.093v60.001zM0 960v-1024h597.333v1024h-597.333zM370.094 900l-11.639-23.2c-11.378-22.933-34.392-37.333-59.787-37.333s-48.411 14.4-59.786 37.333l-11.64 23.2h142.853zM537.81-3.999h-478.289v903.999h101.319l24.867-50.133c21.428-43.467 64.812-70.4 113.223-70.4 48.145 0 91.531 26.933 112.959 70.4l24.866 50.133h101.319v-903.999h-0.265zM149.472 220.265h298.667v301.067h-298.667v-301.067zM208.994 461.332h60.051v-70.397h59.523v70.397h60.049v-181.066h-179.623v181.066zM389.404 673.334l-42.061 42.4-62.697-63.201-34.39 34.668-42.062-42.399 76.452-77.067 104.758 105.6z" />
<glyph unicode="&#xe917;" glyph-name="24" horiz-adv-x="967" d="M71.996 720h-71.996v-179.999h63.4l60.444-604.001h692.29c83.28 0 151.245 67.2 151.245 150.133v30.134h-60.444v59.733h60.177v90.132c0 82.668-67.698 150.135-151.245 150.135h-226.466l12.359 124.001h63.13v179.732h-71.996l-60.444 120h-206.586l-30.356 120h-174.618v-60h127.605l15.044-60h-131.097l-60.444-120zM816.134-3.999h-302.49c-39.492 0-73.071 25.065-85.43 60.001h473.079c-12.356-34.935-45.938-60.001-85.16-60.001zM846.222 115.999h-362.667v60.001h362.667v-60.001zM906.667 265.867v-30.134h-483.556v30.134c0 49.599 40.565 90.132 90.533 90.132h302.222c50.236 0 90.8-40.266 90.8-90.132zM528.688 416h-14.777c-83.28 0-150.977-67.2-150.977-150.133v-89.867h60.444v-60.001h-60.712v-30.131c0-33.869 11.284-64.802 30.356-90.135h-214.644l-54.534 544h416.933l-12.089-123.733zM604.444 600.001h-544v59.998h544v-59.998zM495.107 780l30.089-60h-385.502l30.356 60h325.057z" />
<glyph unicode="&#xe918;" glyph-name="25" d="M512 960c31.419 0 56.889-25.47 56.889-56.889v-910.222c0-31.419-25.47-56.889-56.889-56.889s-56.889 25.47-56.889 56.889v910.222c0 31.419 25.47 56.889 56.889 56.889zM1024 448c0-31.419-25.47-56.889-56.889-56.889h-910.222c-31.419 0-56.889 25.47-56.889 56.889s25.47 56.889 56.889 56.889h910.222c31.419 0 56.889-25.47 56.889-56.889z" />
<glyph unicode="&#xe919;" glyph-name="26" horiz-adv-x="9216" d="M9216 448c0-282.77-229.23-512-512-512h-8192c-282.77 0-512 229.23-512 512s229.23 512 512 512h8192c282.77 0 512-229.23 512-512z" />
<glyph unicode="&#xe91a;" glyph-name="27" d="M0 960h227.556v-227.556h-227.556v227.556zM0 561.778h227.556v-227.556h-227.556v227.556zM227.556 163.556h-227.556v-227.556h227.556v227.556zM398.222 960h227.556v-227.556h-227.556v227.556zM625.778 561.778h-227.556v-227.556h227.556v227.556zM398.222 163.556h227.556v-227.556h-227.556v227.556zM1024 960h-227.556v-227.556h227.556v227.556zM796.444 561.778h227.556v-227.556h-227.556v227.556zM1024 163.556h-227.556v-227.556h227.556v227.556z" />
<glyph unicode="&#xe91b;" glyph-name="28" d="M307.2 806.4c0-84.831-68.769-153.6-153.6-153.6s-153.6 68.769-153.6 153.6c0 84.831 68.769 153.6 153.6 153.6s153.6-68.769 153.6-153.6zM69.66 806.4c0-46.359 37.581-83.94 83.94-83.94s83.94 37.581 83.94 83.94c0 46.359-37.581 83.94-83.94 83.94s-83.94-37.581-83.94-83.94zM307.2 448c0-84.833-68.769-153.6-153.6-153.6s-153.6 68.767-153.6 153.6c0 84.831 68.769 153.6 153.6 153.6s153.6-68.769 153.6-153.6zM69.66 448c0-46.356 37.581-83.942 83.94-83.942s83.94 37.586 83.94 83.942c0 46.359-37.581 83.94-83.94 83.94s-83.94-37.581-83.94-83.94zM307.2 89.6c0-84.833-68.769-153.6-153.6-153.6s-153.6 68.767-153.6 153.6c0 84.833 68.769 153.6 153.6 153.6s153.6-68.767 153.6-153.6zM69.66 89.6c0-46.356 37.581-83.942 83.94-83.942s83.94 37.586 83.94 83.942c0 46.356-37.581 83.942-83.94 83.942s-83.94-37.586-83.94-83.942zM409.6 857.6h614.4v-102.4h-614.4v102.4zM409.6 499.2h614.4v-102.4h-614.4v102.4zM409.6 140.8h614.4v-102.4h-614.4v102.4z" />
<glyph unicode="&#xe91c;" glyph-name="29" horiz-adv-x="602" d="M517.168 960l85.185-85.185-425.93-425.93 425.93-425.929-85.185-85.185-511.114 511.116 511.114 511.113z" />
<glyph unicode="&#xe91d;" glyph-name="30" horiz-adv-x="602" d="M85.185 960l-85.185-85.185 425.93-425.93-425.93-425.929 85.185-85.185 511.114 511.116-511.114 511.113z" />
<glyph unicode="&#xe91e;" glyph-name="31" horiz-adv-x="1463" d="M110.807 264.050l206.889-206.868 413.76 413.718 413.715-413.728 206.876 206.883-620.627 620.648-620.613-620.652z" />
<glyph unicode="&#xe91f;" glyph-name="32" horiz-adv-x="1463" d="M110.791 631.934l206.891 206.868 413.776-413.734 413.73 413.745 206.876-206.882-620.627-620.649-620.645 620.652z" />
<glyph unicode="&#xe920;" glyph-name="33" horiz-adv-x="1081" d="M776.129 959.994c-82.148 0-160.444-34.848-216.563-96.236l-19.008-20.54-19.009 20.54c-111.11 121.852-298.028 129.007-417.737 15.693-5.205-5.077-10.41-10.154-15.388-15.693-117.899-129.699-117.899-330.018 0-459.486l424.073-456.024c14.709-15.696 39.149-16.384 54.537-1.616 0.453 0.461 0.905 0.922 1.584 1.616l423.848 456.024c117.897 129.699 117.897 330.017 0 459.486-55.893 61.157-134.195 96.005-216.337 96.236zM936.573 458.506l-396.016-425.789-396.013 425.789c-90.064 99.005-90.064 252.013 0 351.019 81.692 90.466 219.957 96.005 308.438 12.693 4.3-4.154 8.373-8.308 12.446-12.693l47.069-50.541c15.614-15.693 40.507-15.693 56.121 0l47.068 50.541c81.692 90.466 219.961 96.005 308.44 12.693 4.301-4.154 8.374-8.308 12.447-12.693 90.743-99.236 91.42-252.475 0-351.019z" />
<glyph unicode="&#xe921;" glyph-name="34" d="M554.667 533.333v426.667h-128v-426.667h-426.667v-128h426.667v-426.667h128v426.667h426.667v128h-426.667z" />
<glyph unicode="&#xe922;" glyph-name="35" horiz-adv-x="6656" d="M408 960h5888v-768h-5888v768z" />
<glyph unicode="&#xe923;" glyph-name="36" horiz-adv-x="951" d="M585.142 447.914l365.759 365.757-77.583 77.58-365.756-365.757-361.32 361.32-77.58-77.58 361.32-361.32-358.32-358.322 77.579-77.575 358.32 358.317 362.757-362.757 77.583 77.583-362.76 362.754z" />
<glyph unicode="&#xe924;" glyph-name="37" horiz-adv-x="1463" d="M110.791 631.934l206.891 206.868 413.776-413.734 413.73 413.745 206.876-206.882-620.627-620.649-620.645 620.652z" />
<glyph unicode="&#xe925;" glyph-name="38" horiz-adv-x="1152" d="M650.25 143.469l415.749 720.531-166.281 96-415.937-720.422-387.781 223.891-96-166.281 553.999-320 96.251 166.281z" />
<glyph unicode="&#xe926;" glyph-name="39" horiz-adv-x="780" d="M369.713 960c-213.528 0-369.713-212.407-369.713-387.462 0-84.602 9.118-164.913 59.685-232.302l286.135-385.609c0.731-0.926 1.853-1.317 2.633-2.194 2.855-3.277 6.416-5.861 10.414-7.563s8.33-2.477 12.67-2.267c4.34 0.21 8.577 1.404 12.39 3.486s7.107 5.003 9.63 8.538c92.904 124.016 207.599 258.438 295.858 385.609 66.394 107.764 67.613 151.259 67.613 232.302 0 175.055-173.787 387.462-387.316 387.462zM369.615 289.621c-155.648 0-263.802 127.171-263.802 282.77 0 155.697 108.203 282.917 263.802 282.917s282.77-127.22 282.77-282.819c0-155.697-127.171-282.868-282.77-282.868z" />
<glyph unicode="&#xe927;" glyph-name="40" d="M970.53 261.092l-103.043 84.417c-67.226 54.972-171.247 49.818-232.585-11.531l-4.17-4.17c-10.308-10.308-26.988-10.308-37.046 0l-198.974 199.018c-10.059 10.061-10.304 26.258-0.491 36.565 0.246 0.245 0.246 0.491 0.491 0.491l-0.491-0.491c0.246 0.245 0.246 0.245 0.491 0.491 60.845 61.595 66.733 166.136 13.494 233.622l-83.662 105.768c-53.975 67.976-147.205 73.375-208.54 12.025l-15.457-15.461c-108.441-108.712-134.202-304.788-52.503-435.095 0 0 48.087-111.411 210.013-273.38 161.926-161.963 273.311-210.062 273.311-210.062 131.501-79.508 326.306-55.95 434.992 52.764l14.717 14.723c61.093 61.104 56.434 155.341-10.547 210.307zM906.985 124.649l-14.717-14.723c-74.587-74.604-216.394-91.779-306.677-37.057l-6.138 3.681-6.622 2.947c-8.096 3.436-28.46 14.478-59.127 35.095-54.466 36.562-115.802 86.869-181.799 152.883s-116.292 127.117-152.848 181.596c-20.609 30.675-31.649 51.044-35.084 59.142l-3.189 7.362-4.171 6.871c-54.956 87.608-37.047 230.186 38.028 305.524l15.457 15.461c16.928 16.932 37.292 15.951 52.258-2.945l83.662-105.768c20.609-26.012 17.91-71.411-5.889-95.216-50.54-51.289-50.295-133.744 0.491-184.541l198.972-199.022c51.032-51.041 133.959-51.041 185.233 0l4.17 4.176c23.307 23.313 66.736 25.276 92.251 4.415l103.043-84.417c19.137-15.707 20.116-38.036 2.697-55.461z" />
</font>
</defs>
</svg>
